<?xml version="1.0" standalone="no"?>
<!DOCTYPE svg PUBLIC "-//W3C//DTD SVG 1.1//EN" "http://www.w3.org/Graphics/SVG/1.1/DTD/svg11.dtd" >
<svg xmlns="http://www.w3.org/2000/svg">
<metadata>
This is a custom SVG webfont generated by Fontspring.
</metadata>
<defs>
<font id="webfontkQkWxTED" horiz-adv-x="1681" >
<font-face units-per-em="2048" ascent="1536" descent="-512" />
<missing-glyph horiz-adv-x="526" />
<glyph unicode=" "  horiz-adv-x="526" />
<glyph unicode="&#x09;" horiz-adv-x="526" />
<glyph unicode="&#xa0;" horiz-adv-x="526" />
<glyph unicode="!" horiz-adv-x="651" d="M223 1446h205l-12 -1049h-178zM225 0v199h203v-199h-203z" />
<glyph unicode="&#x22;" horiz-adv-x="700" d="M129 1085v385h156v-385h-156zM416 1085v385h155v-385h-155z" />
<glyph unicode="#" horiz-adv-x="1470" d="M90 391l25 152h268l59 344h-264l25 149h266l72 410h166l-72 -410h317l72 410h166l-72 -410h268l-26 -149h-266l-62 -344h266l-26 -152h-264l-70 -391h-166l68 391h-318l-67 -391h-166l67 391h-266zM549 543h317l62 344h-318z" />
<glyph unicode="$" horiz-adv-x="1159" d="M111 166l114 153q6 -6 17.5 -16t50.5 -37.5t79 -48t101.5 -37t120.5 -16.5q106 0 178 57.5t72 155.5q0 82 -73 142.5t-177.5 104.5t-208.5 95t-177 139t-73 209q0 150 105.5 261.5t275.5 135.5v193h146v-191q102 -8 189 -42.5t124 -67.5l37 -31l-92 -168q-14 14 -42 34.5 t-111 55.5t-165 35q-115 0 -188.5 -61.5t-73.5 -149.5q0 -57 39 -103t101.5 -79t138 -63.5t151.5 -68.5t138.5 -85t101.5 -121t39 -168q0 -158 -104.5 -270.5t-282.5 -132.5v-189h-146v189q-231 23 -389 170z" />
<glyph unicode="%" horiz-adv-x="1558" d="M98 1167q0 125 90.5 214t219.5 89t220 -89t91 -214t-91 -214t-220 -89t-219.5 88t-90.5 215zM129 0l1106 1446h192l-1105 -1446h-193zM256 1167q0 -66 44 -108.5t107.5 -42.5t107.5 43t44 108q0 63 -44 108.5t-107.5 45.5t-107.5 -45.5t-44 -108.5zM840 279q0 125 91 214 t220 89q127 0 219 -89.5t92 -214t-92 -214t-219 -89.5q-131 0 -221 88.5t-90 215.5zM999 279q0 -66 43 -109t109 -43q63 0 107.5 44t44.5 107.5t-44.5 108.5t-108 45t-107.5 -45t-44 -108z" />
<glyph unicode="&#x26;" horiz-adv-x="1400" d="M111 406q0 123 68.5 227t185.5 143v4q-8 2 -20.5 8.5t-45.5 31t-58.5 57t-46 92t-20.5 129.5q0 176 124 274t320 98q35 0 79 -6t71 -10l27 -6l-52 -162q-59 12 -108 12q-111 0 -183.5 -59t-72.5 -162q0 -39 11 -74.5t38 -72.5t82 -58.5t135 -21.5h268v197h199v-197h193 v-176h-193v-193q0 -240 -133 -373t-367 -133q-223 0 -362 123.5t-139 307.5zM317 416q0 -106 82 -180t213 -74q143 0 222 81t79 246v185h-276q-154 0 -237 -67.5t-83 -190.5z" />
<glyph unicode="'" horiz-adv-x="415" d="M129 1085v385h158v-385h-158z" />
<glyph unicode="(" horiz-adv-x="618" d="M150 696q0 430 237 809h174q-231 -387 -231 -811q0 -469 231 -889h-174q-237 395 -237 891z" />
<glyph unicode=")" horiz-adv-x="618" d="M57 -195q231 420 232 889q0 424 -232 811h174q238 -379 238 -809q0 -496 -238 -891h-174z" />
<glyph unicode="*" horiz-adv-x="956" d="M74 1085l53 172l272 -102l-14 291h186l-16 -291l274 102l56 -172l-281 -75v-4l180 -226l-145 -106l-158 241h-4l-160 -241l-147 106l182 226v4z" />
<glyph unicode="+" horiz-adv-x="1398" d="M158 504v160h458v503h168v-503h457v-160h-457v-504h-168v504h-458z" />
<glyph unicode="," horiz-adv-x="522" d="M55 -207l127 422h203l-172 -422h-158z" />
<glyph unicode="-" horiz-adv-x="966" d="M184 496v176h598v-176h-598z" />
<glyph unicode="." horiz-adv-x="520" d="M156 0v211h209v-211h-209z" />
<glyph unicode="/" horiz-adv-x="827" d="M74 -86l520 1610h176l-520 -1610h-176z" />
<glyph unicode="0" horiz-adv-x="1280" d="M129 725q0 745 510 745q512 0 512 -745q0 -750 -512 -750q-510 0 -510 750zM336 725q0 -563 303 -563q305 0 305 563q0 559 -305 559q-303 0 -303 -559z" />
<glyph unicode="1" horiz-adv-x="1001" d="M104 1110l347 336h180v-1270h315v-176h-831v176h319v934l2 90h-4q-16 -33 -70 -84l-135 -133z" />
<glyph unicode="2" horiz-adv-x="1171" d="M113 111q0 121 52 224t131 170.5t171 135.5l171 122q79 54 131 127t52 150q0 106 -72.5 173t-187.5 67q-53 0 -103 -19.5t-83 -46t-58.5 -53t-37.5 -47.5l-11 -18l-149 100q6 10 16 29.5t50 66.5t88.5 83t129 65.5t172.5 29.5q201 0 329 -114.5t128 -300.5 q0 -96 -38 -180t-99 -144.5t-135 -116t-147.5 -104.5t-135 -98.5t-100.5 -109.5t-39 -126h717v-176h-932q-10 66 -10 111z" />
<glyph unicode="3" horiz-adv-x="1161" d="M82 172l111 154q16 -18 44.5 -44t121 -70t184.5 -44q123 0 209 74.5t86 189.5q0 127 -96.5 196.5t-239.5 69.5h-101l-47 109l316 371l90 94v4q-43 -6 -123 -6h-490v176h865v-129l-394 -453q168 -18 296 -124.5t128 -299t-137 -329t-354 -136.5q-82 0 -161 20.5t-132 49.5 t-95 57.5t-61 49.5z" />
<glyph unicode="4" horiz-adv-x="1241" d="M63 387v127l668 932h232v-887h196v-172h-196v-387h-199v387h-701zM287 559h477v526l8 144h-4q-33 -68 -72 -119l-409 -547v-4z" />
<glyph unicode="5" horiz-adv-x="1153" d="M98 176l113 148q4 -6 13 -16.5t40 -38t64.5 -48t88 -37t111.5 -16.5q131 0 224.5 82t93.5 211t-94.5 213t-235.5 84q-63 0 -123.5 -18.5t-89.5 -34.5l-31 -19l-116 43l71 717h729v-176h-553l-34 -305l-11 -76h4q80 45 187 45q223 0 363.5 -136t140.5 -335 q0 -209 -146.5 -348.5t-365.5 -139.5q-248 0 -414 168z" />
<glyph unicode="6" horiz-adv-x="1226" d="M121 657q0 143 40 283.5t116.5 261.5t204.5 194.5t290 73.5q76 0 145.5 -14t102.5 -31l33 -14l-66 -174q-92 47 -207 47q-186 0 -296.5 -142.5t-137.5 -342.5h4q45 61 134 99t186 38q203 0 329.5 -136t126.5 -341q0 -213 -131 -348.5t-333 -135.5q-236 0 -388.5 188.5 t-152.5 493.5zM334 561q0 -147 96 -273t229 -126q121 0 194 84t73 213q0 135 -81 220t-216 85q-121 0 -208 -61.5t-87 -141.5z" />
<glyph unicode="7" horiz-adv-x="1083" d="M72 1270v176h966v-139l-653 -1307h-209l563 1139q18 37 39 69.5t33 48.5l12 15v4q-33 -6 -106 -6h-645z" />
<glyph unicode="8" horiz-adv-x="1243" d="M117 418q0 76 28.5 146.5t74.5 120.5t74 74.5t54 43.5q-162 117 -162 289q0 156 117 267t334 111q203 0 329 -105t126 -282q0 -186 -172 -376q197 -121 196 -308q0 -174 -138 -299t-357.5 -125t-361.5 124t-142 319zM324 430q0 -121 88 -196.5t209 -75.5 q117 0 201.5 69.5t84.5 178.5q0 37 -18.5 70.5t-43 57t-71.5 51t-83 44.5l-97 44l-96 44q-174 -121 -174 -287zM387 1087q0 -29 10.5 -55t21.5 -46.5t39.5 -43t47 -35t59.5 -33t61.5 -29.5t71 -29.5t68.5 -29.5q127 127 127 285q0 98 -71.5 157.5t-186.5 59.5 q-117 0 -182.5 -57.5t-65.5 -143.5z" />
<glyph unicode="9" horiz-adv-x="1226" d="M100 987q0 213 131 348t334 135q233 0 387 -188t154 -494q0 -143 -40 -283t-117 -261t-205 -195t-289 -74q-76 0 -146.5 14.5t-103.5 30.5l-31 15l66 176q92 -49 206 -49q186 0 297 142t138 343h-4q-43 -61 -133.5 -98t-186.5 -37q-203 0 -330 135t-127 340zM301 987 q0 -135 80 -220t217 -85q121 0 208 62.5t87 140.5q0 147 -96.5 273t-229.5 126q-123 0 -194.5 -84t-71.5 -213z" />
<glyph unicode=":" horiz-adv-x="598" d="M195 0v211h208v-211h-208zM195 825v211h208v-211h-208z" />
<glyph unicode=";" horiz-adv-x="600" d="M96 -207l109 422h205l-154 -422h-160zM207 825v211h209v-211h-209z" />
<glyph unicode="&#x3c;" horiz-adv-x="1142" d="M68 516v135l954 426v-182l-733 -309v-4l733 -310v-182z" />
<glyph unicode="=" horiz-adv-x="1370" d="M197 309v160h977v-160h-977zM197 696v160h977v-160h-977z" />
<glyph unicode="&#x3e;" horiz-adv-x="1142" d="M121 90v182l731 310v4l-731 309v182l954 -426v-135z" />
<glyph unicode="?" horiz-adv-x="1001" d="M66 1343q14 14 42.5 36t123 59t192.5 37q178 0 303 -104.5t125 -270.5q0 -94 -37 -169t-90 -125t-107.5 -96t-91.5 -103.5t-37 -125.5v-84h-194v97q0 86 36 156.5t87 119.5l102 94q51 45 87 101.5t36 119.5q0 86 -66.5 144.5t-166.5 58.5q-57 0 -115.5 -21.5t-89.5 -41.5 l-29 -23zM291 0v199h203v-199h-203z" />
<glyph unicode="@" d="M121 493.5q0 317.5 217 537.5t530 220q276 0 404.5 -117.5t128.5 -297.5v-580h147v-150h-559q-186 0 -305 114t-119 274q0 158 118 270.5t306 112.5h221q-4 92 -91 151t-240 59q-236 0 -398 -175t-162 -418q0 -248 163 -418t419 -170v-162q-340 0 -560 216t-220 533.5z M766 496q0 -100 67.5 -170t170.5 -70h206v483h-202q-106 0 -174 -70.5t-68 -172.5z" />
<glyph unicode="A" horiz-adv-x="1286" d="M16 0l521 1446h213l520 -1446h-211l-146 416h-544l-144 -416h-209zM422 584h438l-160 458l-55 205h-4q-33 -131 -57 -205z" />
<glyph unicode="B" horiz-adv-x="1298" d="M197 0v1446h505q186 0 303 -98.5t117 -270.5q0 -104 -48 -186t-132 -125v-4q111 -33 174.5 -129t63.5 -221q0 -197 -132.5 -304.5t-332.5 -107.5h-518zM399 176h326q115 0 181.5 66.5t66.5 179.5q0 111 -68.5 179.5t-181.5 68.5h-324v-494zM399 838h303q96 0 154.5 61.5 t58.5 157.5t-57 154.5t-160 58.5h-299v-432z" />
<glyph unicode="C" horiz-adv-x="1478" d="M98 731q0 315 210 527t526 212q98 0 188 -19t148.5 -47t103.5 -56.5t65 -49.5l21 -18l-100 -152q-18 18 -53.5 44t-145 70t-219.5 44q-238 0 -386.5 -158.5t-148.5 -394.5q0 -238 150.5 -404.5t386.5 -166.5q121 0 232.5 47t162.5 94l51 47l109 -145q-8 -10 -23.5 -25.5 t-70 -54.5t-115 -69.5t-155.5 -55.5t-197 -25q-322 0 -531 217t-209 539z" />
<glyph unicode="D" horiz-adv-x="1515" d="M197 0v1446h479q336 0 534.5 -191.5t198.5 -529.5q0 -340 -198.5 -532.5t-534.5 -192.5h-479zM399 176h263q248 0 393 143.5t145 405.5q0 260 -145.5 402.5t-392.5 142.5h-263v-1094z" />
<glyph unicode="E" horiz-adv-x="1173" d="M197 0v1446h839v-176h-637v-453h519v-176h-519v-465h672v-176h-874z" />
<glyph unicode="F" horiz-adv-x="1067" d="M197 0v1446h796v-176h-594v-475h506v-177h-506v-618h-202z" />
<glyph unicode="G" horiz-adv-x="1556" d="M100 725q0 315 211 530t527 215q96 0 186 -18t149.5 -43t104.5 -50.5t65 -43.5l21 -19l-102 -151q-18 16 -52 39.5t-140.5 62.5t-215.5 39q-248 0 -396.5 -158.5t-148.5 -398.5q0 -250 151.5 -408.5t381.5 -158.5q111 0 213 45t149 90l47 45v209h-235v176h420v-727h-179 v90l3 62h-5l-18 -19q-12 -12 -55 -43t-90.5 -53.5t-124 -42t-156.5 -19.5q-297 0 -504 212t-207 538z" />
<glyph unicode="H" horiz-adv-x="1548" d="M197 0v1446h202v-635h750v635h203v-1446h-203v635h-750v-635h-202z" />
<glyph unicode="I" horiz-adv-x="595" d="M197 0v1446h202v-1446h-202z" />
<glyph unicode="J" horiz-adv-x="1099" d="M61 416v71h201v-61q0 -137 66.5 -200.5t163 -63.5t161 61.5t64.5 194.5v852h-365v176h568v-1030q0 -219 -127 -330t-303.5 -111t-302.5 112t-126 329z" />
<glyph unicode="K" horiz-adv-x="1275" d="M197 0v1446h202v-608h215l365 608h223l-420 -686v-4l447 -756h-230l-385 664h-215v-664h-202z" />
<glyph unicode="L" horiz-adv-x="1083" d="M197 0v1446h202v-1270h648v-176h-850z" />
<glyph unicode="M" horiz-adv-x="1773" d="M152 0l116 1446h213l332 -782l72 -195h4q39 115 72 195l331 782h213l117 -1446h-201l-71 911l-2 213h-5q-43 -133 -77 -213l-289 -651h-180l-287 651q-33 78 -78 217h-4q1 -32 1 -62q0 -89 -5 -155l-70 -911h-202z" />
<glyph unicode="N" horiz-adv-x="1550" d="M197 0v1446h200l643 -940q25 -35 55 -87l48 -87l18 -35h4q-14 129 -14 209v940h203v-1446h-199l-645 938q-53 80 -121 211h-4q14 -129 14 -211v-938h-202z" />
<glyph unicode="O" d="M98 733q0 311 215 524t528.5 213t527.5 -213t214 -524q0 -319 -214 -538.5t-527.5 -219.5t-528.5 219.5t-215 538.5zM307 733q0 -242 155.5 -406.5t379 -164.5t378 165t154.5 406q0 236 -154.5 394.5t-378 158.5t-379 -158.5t-155.5 -394.5z" />
<glyph unicode="P" horiz-adv-x="1243" d="M197 0v1446h528q201 0 328 -124t127 -329t-128 -331.5t-327 -126.5h-326v-535h-202zM399 711h293q131 0 206 75.5t75 206.5q0 129 -75 203t-204 74h-295v-559z" />
<glyph unicode="Q" horiz-adv-x="1705" d="M100 731q0 313 214 526t528 213q315 0 529 -213t214 -526q0 -270 -170 -477l172 -164l-119 -127l-168 168q-195 -156 -458 -156q-313 0 -527.5 219.5t-214.5 536.5zM309 731q0 -242 153.5 -405.5t379.5 -163.5q180 0 313 106l-170 166l119 127l166 -168q106 147 106 338 q0 238 -153.5 396.5t-380.5 158.5q-225 0 -379 -158.5t-154 -396.5z" />
<glyph unicode="R" horiz-adv-x="1312" d="M197 0v1446h442q182 0 270 -33q113 -41 178.5 -145.5t65.5 -245.5q0 -139 -70.5 -245.5t-189.5 -145.5v-4q16 -18 43 -66l307 -561h-229l-305 575h-310v-575h-202zM399 752h291q119 0 187.5 70.5t68.5 191.5q0 160 -115 223q-61 33 -198 33h-234v-518z" />
<glyph unicode="S" horiz-adv-x="1118" d="M86 166l115 153q6 -6 17 -16t50 -37.5t79 -48t101.5 -37t120.5 -16.5q106 0 178 57.5t72 155.5q0 63 -39 112.5t-100.5 84t-136 66.5t-149.5 68.5t-136 82t-100 116t-39 160.5q0 170 132 286.5t335 116.5q119 0 221 -36.5t145 -73.5l43 -35l-92 -168q-14 14 -41.5 34.5 t-110.5 55.5t-165 35q-113 0 -187.5 -61.5t-74.5 -149.5q0 -82 71.5 -139.5t175 -98t207 -90t175 -140.5t71.5 -220q0 -174 -125 -291t-334 -117q-86 0 -167 19.5t-135 47.5t-96 56.5t-61 48.5z" />
<glyph unicode="T" horiz-adv-x="1214" d="M10 1270v176h1194v-176h-495v-1270h-203v1270h-496z" />
<glyph unicode="U" horiz-adv-x="1490" d="M176 512v934h203v-934q0 -164 98 -257t266 -93q170 0 269.5 93t99.5 261v930h203v-934q0 -240 -158 -388.5t-411.5 -148.5t-411.5 148.5t-158 388.5z" />
<glyph unicode="V" horiz-adv-x="1294" d="M12 1446h219l359 -1022l55 -199h4q29 121 56 199l362 1022h215l-532 -1446h-203z" />
<glyph unicode="W" horiz-adv-x="1941" d="M68 1446h208l256 -1061q18 -78 27 -154h4q10 74 31 154l283 1061h180l282 -1061l31 -154h4q6 76 27 154l266 1061h209l-379 -1446h-235l-250 938q-25 92 -43 205h-4q-18 -113 -43 -205l-250 -938h-236z" />
<glyph unicode="X" horiz-adv-x="1253" d="M45 0l457 745l-428 701h233l228 -391l92 -172h4q41 92 88 172l227 391h234l-428 -701l456 -745h-229l-262 444l-92 166h-4q-39 -86 -86 -166l-263 -444h-227z" />
<glyph unicode="Y" horiz-adv-x="1204" d="M16 1446h230l268 -475l88 -183h4q43 100 88 183l264 475h230l-483 -834v-612h-203v612z" />
<glyph unicode="Z" horiz-adv-x="1243" d="M84 0v135l696 1004q25 37 50.5 69.5t39.5 48.5l15 15v4q-39 -6 -109 -6h-655v176h1016v-133l-697 -1006q-25 -35 -51.5 -67.5t-40.5 -46.5l-12 -17v-4q39 4 108 4h701v-176h-1061z" />
<glyph unicode="[" horiz-adv-x="616" d="M207 -195v1700h338v-149h-164v-1399h164v-152h-338z" />
<glyph unicode="\" horiz-adv-x="827" d="M57 1524h176l521 -1610h-176z" />
<glyph unicode="]" horiz-adv-x="618" d="M72 -43h166v1399h-166v149h340v-1700h-340v152z" />
<glyph unicode="^" horiz-adv-x="1255" d="M141 506l410 940h129l407 -940h-178l-295 721l-292 -721h-181z" />
<glyph unicode="_" horiz-adv-x="1216" d="M57 0h1102v-160h-1102v160z" />
<glyph unicode="`" horiz-adv-x="1021" d="M330 1806h213l149 -260h-168z" />
<glyph unicode="a" horiz-adv-x="1081" d="M72 291q0 356 624 356h45v19q0 227 -227 227q-156 -2 -289 -100l-82 145q16 14 48 34.5t132.5 54.5t206.5 34q197 0 303.5 -104.5t106.5 -301.5v-655h-184v98l4 82h-4l-12 -22q-7 -14 -34.5 -49t-61.5 -62t-94 -49.5t-130 -22.5q-143 0 -247.5 84.5t-104.5 231.5z M272 301q0 -68 51.5 -117t143.5 -49q119 0 197.5 103.5t78.5 226.5v33h-51q-420 0 -420 -197z" />
<glyph unicode="b" horiz-adv-x="1228" d="M156 0v1446h198v-473l-4 -88h4l11.5 18t36 43t62.5 53.5t94 42t128 19.5q207 0 331 -149.5t124 -393.5t-132 -393.5t-339 -149.5q-66 0 -123.5 18.5t-92 45.5t-61 52.5t-37.5 43.5l-12 19h-4q4 -33 4 -78v-76h-188zM348 514q0 -150 77 -259.5t216 -109.5q127 0 213 99.5 t86 271.5q0 168 -81 269.5t-212 101.5q-127 0 -213 -93.5t-86 -279.5z" />
<glyph unicode="c" horiz-adv-x="1120" d="M82 518q0 231 156.5 387t398.5 156q115 0 212 -38t138 -77l39 -37l-94 -139q-12 12 -36 32.5t-98.5 53.5t-152.5 33q-156 0 -258 -104.5t-102 -264.5t103.5 -266.5t262.5 -106.5q86 0 166 35t117 70l37 35l80 -146l-18 -17q-11 -11 -50 -40t-84 -50.5t-115.5 -40 t-146.5 -18.5q-244 0 -399.5 153.5t-155.5 389.5z" />
<glyph unicode="d" horiz-adv-x="1230" d="M88 518q0 246 131 394.5t338 148.5q68 0 125 -16.5t91 -41t59.5 -49t35.5 -41.5l9 -16h4q-4 31 -4 70v479h198v-1446h-188v98l2 70h-4q-4 -8 -11.5 -20.5t-35 -46t-63.5 -59.5t-97.5 -46.5t-132.5 -20.5q-209 0 -333 149.5t-124 393.5zM291 518q0 -168 81 -269.5 t212 -101.5q127 0 213 93.5t86 279.5q0 150 -77 259.5t-216 109.5q-127 0 -213 -99.5t-86 -271.5z" />
<glyph unicode="e" horiz-adv-x="1136" d="M84 518q0 244 146.5 393.5t371.5 149.5q211 0 330 -137.5t119 -348.5l-7 -86h-755q8 -164 109.5 -253t246.5 -89q164 0 299 115l8 6l82 -145q-16 -16 -49 -41t-137.5 -66t-214.5 -41q-242 0 -395.5 155t-153.5 388zM295 639h553q-4 129 -75 196.5t-175 67.5 q-117 0 -200 -69.5t-103 -194.5z" />
<glyph unicode="f" horiz-adv-x="688" d="M82 862v160h129v49q0 98 28.5 171t69.5 113t98.5 63.5t101.5 30.5t91 7l76 -6v-170q-20 4 -51 4q-35 0 -67 -7t-68.5 -27.5t-59 -67.5t-22.5 -115v-45h245v-160h-245v-862h-197v862h-129z" />
<glyph unicode="g" horiz-adv-x="1214" d="M88 542.5q0 229.5 121 374t332 144.5q213 0 311 -131l14 -23h4q-2 14 -2 33v96h191v-993q0 -123 -44 -217t-120 -148.5t-166 -81t-192 -26.5q-186 0 -355 86l66 156q129 -70 284 -70q147 0 237.5 70.5t90.5 220.5v76l2 65h-4q-96 -162 -307 -162t-337 150.5t-126 380z M289 547q0 -164 81 -263.5t220 -99.5q121 0 197.5 84t76.5 273q0 348 -293 348q-133 0 -207.5 -91t-74.5 -251z" />
<glyph unicode="h" horiz-adv-x="1234" d="M156 0v1446h198v-531l-4 -86h4q41 90 141.5 161t241.5 71q356 0 357 -397v-664h-199v618q0 125 -41 193t-155.5 68t-205 -72t-122.5 -184q-16 -55 -17 -138v-485h-198z" />
<glyph unicode="i" horiz-adv-x="509" d="M154 1243v203h200v-203h-200zM156 0v1036h198v-1036h-198z" />
<glyph unicode="j" horiz-adv-x="507" d="M-113 -248q18 -2 45 -2q35 0 68 8.5t71 28.5t61.5 69.5t23.5 120.5v1059h196v-1071q0 -121 -42 -205t-109.5 -119.5t-125 -49t-118.5 -13.5l-70 4v170zM154 1243v203h200v-203h-200z" />
<glyph unicode="k" horiz-adv-x="1077" d="M156 0v1446h198v-791h146l282 381h226l-344 -456v-5l383 -575h-232l-311 487h-150v-487h-198z" />
<glyph unicode="l" horiz-adv-x="542" d="M143 283v1163h199v-1129q0 -86 28.5 -116.5t82.5 -30.5l34 2v-176q-31 -4 -65 -4q-279 0 -279 291z" />
<glyph unicode="m" horiz-adv-x="1871" d="M156 0v1036h192v-137l-4 -76h4q39 96 139.5 167t217.5 71q258 0 311 -236h4q45 98 146.5 167t222.5 69q342 0 342 -397v-664h-199v621q0 125 -38 192.5t-146 67.5q-104 0 -183.5 -76t-107.5 -189q-14 -59 -15 -143v-473h-198v621q0 123 -36 191.5t-144.5 68.5t-187.5 -78 t-109 -195q-12 -49 -13 -135v-473h-198z" />
<glyph unicode="n" horiz-adv-x="1234" d="M156 0v1036h192v-137l-4 -76h4q41 88 139.5 163t249.5 75q356 0 357 -397v-664h-199v618q0 125 -41 193t-156 68q-117 0 -206 -71t-121 -183q-16 -55 -17 -140v-485h-198z" />
<glyph unicode="o" horiz-adv-x="1277" d="M80 520.5q0 233.5 161.5 387t397 153.5t397.5 -153.5t162 -387t-163 -389.5t-396 -156t-396 156t-163 389.5zM283 520q0 -160 104.5 -266.5t251.5 -106.5q150 0 253 105.5t103 267.5q0 160 -103.5 264.5t-252.5 104.5q-147 0 -251.5 -104.5t-104.5 -264.5z" />
<glyph unicode="p" horiz-adv-x="1228" d="M156 -410v1446h182v-88l-4 -76h4q4 8 11 20.5t37 45.5t65.5 57.5t98 45t136.5 20.5q207 0 331 -149.5t124 -393.5t-132 -393.5t-337 -149.5q-63 0 -119.5 17.5t-91.5 43t-60.5 50.5t-35.5 41l-11 18h-4q4 -37 4 -90v-465h-198zM348 514q0 -150 79 -259.5t214 -109.5 q127 0 213 99.5t86 271.5q0 168 -81 269.5t-212 101.5q-127 0 -213 -93.5t-86 -279.5z" />
<glyph unicode="q" horiz-adv-x="1230" d="M88 518q0 246 131 394.5t338 148.5q68 0 126 -18.5t93 -43t61.5 -50t36.5 -44.5l11 -18h4q-2 31 -2 71v78h188v-1446h-198v473l4 91h-4q-4 -8 -11.5 -19.5t-35 -42.5t-62.5 -54.5t-94.5 -43t-128.5 -19.5q-209 0 -333 149.5t-124 393.5zM291 518q0 -168 81 -269.5 t212 -101.5q127 0 213 93.5t86 279.5q0 150 -77 259.5t-216 109.5q-127 0 -213 -99.5t-86 -271.5z" />
<glyph unicode="r" horiz-adv-x="768" d="M156 0v1036h192v-180l-4 -78h4q37 119 124 195t204 76l51 -5v-196q-27 6 -57 6q-96 0 -176 -65.5t-115 -178.5q-25 -80 -25 -186v-424h-198z" />
<glyph unicode="s" horiz-adv-x="917" d="M72 127l96 141q12 -14 36.5 -33.5t102.5 -53.5t158 -34q70 0 121 35t51 94q0 51 -55.5 90.5t-133 69t-155.5 65.5t-133.5 103.5t-55.5 161.5q0 137 106.5 216t268.5 79q100 0 184.5 -28.5t116.5 -57.5l33 -29l-80 -149q-10 10 -29.5 25.5t-86 41t-140.5 25.5 q-72 0 -121 -32t-49 -95q0 -51 55.5 -88t133 -66.5t155.5 -65.5t133.5 -103.5t55.5 -162.5q0 -131 -103.5 -216t-271.5 -85q-113 0 -211 38t-139 77z" />
<glyph unicode="t" horiz-adv-x="733" d="M63 862v160h142v299h192v-299h250v-160h-250v-461q0 -59 16.5 -103t40 -68.5t55.5 -39t57.5 -18.5t51.5 -4l48 4v-176q-29 -4 -70 -4q-49 0 -94 6t-102.5 30.5t-99.5 64.5t-71.5 114t-29.5 172v483h-136z" />
<glyph unicode="u" horiz-adv-x="1224" d="M141 373v663h199v-618q0 -125 40 -191.5t155 -66.5q152 0 243.5 114.5t91.5 276.5v485h199v-1036h-192v137l4 76h-4q-39 -90 -140.5 -164t-240.5 -74q-355 1 -355 398z" />
<glyph unicode="v" horiz-adv-x="1028" d="M14 1036h211l252 -700q8 -25 16.5 -60.5l14.5 -58.5l4 -22h4l4 22l16 58q9 36 17 61l252 700h209l-383 -1036h-230z" />
<glyph unicode="w" horiz-adv-x="1667" d="M35 1036h211l215 -727l13 -51q7 -29 9 -45l4 -14h5q10 57 26 110l225 725h183l223 -725l29 -110h4q8 57 24 110l217 727h209l-334 -1036h-219l-215 666l-28 112h-5q-12 -59 -28 -112l-213 -666h-221z" />
<glyph unicode="x" horiz-adv-x="1040" d="M45 0l352 532l-334 504h228l192 -315l35 -62h4q18 35 35 62l193 315h227l-334 -504l352 -532h-225l-217 346l-31 57h-4q-16 -33 -31 -57l-217 -346h-225z" />
<glyph unicode="y" horiz-adv-x="1044" d="M4 1036h223l260 -678l39 -125h4q16 70 35 123l252 680h215l-485 -1222q-47 -117 -136 -180.5t-200 -63.5q-51 0 -101.5 16.5t-74.5 32.5l-25 14l70 152q57 -43 121 -43q123 0 186 152l51 118z" />
<glyph unicode="z" horiz-adv-x="1058" d="M80 0v115l522 655l86 96v4q-33 -4 -100 -4h-486v170h854v-114l-522 -658l-88 -94v-4q35 4 103 4h526v-170h-895z" />
<glyph unicode="{" horiz-adv-x="716" d="M100 578v176q6 0 18.5 2t42 16t53.5 36.5t42 68t18 104.5v172q0 92 26 160.5t61.5 104.5t86 58.5t86 27.5t72.5 5l47 -2v-151h-28q-27 0 -50.5 -7.5t-55.5 -26.5t-51 -65.5t-19 -115.5v-211q0 -57 -17.5 -104.5t-42 -75t-48.5 -47t-42 -27.5l-16 -6v-4q6 -2 17 -6.5 t40 -25t50.5 -47t40 -74.5t18.5 -107v-236q0 -70 19 -116t51 -65.5t55.5 -26.5t50.5 -7h28v-152q-18 -4 -47 -4q-37 0 -72.5 5.5t-86 28t-86 58t-61.5 105.5t-26 162v196q0 59 -18 103.5t-43 66t-50.5 34.5t-43.5 15z" />
<glyph unicode="|" horiz-adv-x="579" d="M203 -326v1948h174v-1948h-174z" />
<glyph unicode="}" horiz-adv-x="716" d="M63 -45h29q27 0 50.5 7t55 26.5t51 65.5t19.5 116v236q0 94 42 158.5t83 82.5l41 19v4q-6 2 -17 7t-40 25.5t-50.5 47t-40 74.5t-18.5 106v211q0 70 -19.5 116t-51 65t-55 26.5t-50.5 7.5h-29v151q18 2 48 2q37 0 72.5 -5t85.5 -27.5t86 -58.5t61.5 -104.5t25.5 -160.5 v-172q0 -172 138 -219l36 -8v-176q-6 0 -18 -2.5t-42 -16.5t-53.5 -35.5t-42 -65.5t-18.5 -104v-196q0 -92 -25.5 -162t-61.5 -105.5t-86 -58t-86 -28t-72 -5.5l-48 4v152z" />
<glyph unicode="~" horiz-adv-x="1245" d="M137 418q0 174 75 260t212 86q72 0 130 -32t89 -68.5t76 -68.5t96 -32q74 0 105.5 57.5t31.5 135.5h162q0 -346 -285 -346q-72 0 -130 30.5t-88.5 68.5t-77 68.5t-97.5 30.5q-72 0 -104.5 -57t-32.5 -133h-162z" />
<glyph unicode="&#xa1;" horiz-adv-x="591" d="M193 -410l14 1049h178l12 -1049h-204zM193 838v198h202v-198h-202z" />
<glyph unicode="&#xa2;" horiz-adv-x="1179" d="M109 723q0 227 116.5 388t315.5 187v172h145v-172q133 -20 232.5 -103t152.5 -214l-180 -70q-90 203 -273 203q-143 0 -225 -109.5t-82 -281.5q0 -176 80 -282.5t227 -106.5q184 0 273 203l180 -72q-55 -125 -152.5 -213t-232.5 -102v-177h-145v177q-199 27 -315.5 187.5 t-116.5 385.5z" />
<glyph unicode="&#xa3;" horiz-adv-x="1210" d="M115 0v176h125v477h-90v144h90v278q0 170 126 282.5t318 112.5q186 0 332 -120l10 -11l-117 -141q-98 88 -223 88q-111 0 -176.5 -62.5t-65.5 -156.5v-270h377v-144h-377v-477h666v-176h-995z" />
<glyph unicode="&#xa5;" horiz-adv-x="1243" d="M57 1446h232l241 -451l88 -209h5q43 113 88 209l243 451h232l-340 -606h209v-129h-277l-55 -99v-75h332v-129h-332v-408h-205v408h-334v129h334v75l-55 99h-279v129h211z" />
<glyph unicode="&#xa7;" horiz-adv-x="905" d="M98 -23l90 138q84 -76 199 -76q94 0 155.5 56.5t61.5 158.5q0 41 -12 92l-135 770h161l144 -799q10 -55 10 -92q0 -156 -104.5 -254t-280.5 -98q-80 0 -151.5 26.5t-104.5 51.5zM129 1120q0 154 104.5 252t282.5 98q78 0 150.5 -26.5t105.5 -50.5l33 -27l-94 -131 q-82 70 -195 70q-96 0 -157.5 -53.5t-61.5 -153.5q0 -37 12 -82l140 -789h-164l-144 799q-12 47 -12 94z" />
<glyph unicode="&#xa8;" horiz-adv-x="1021" d="M258 1599v207h164v-207h-164zM600 1599v207h164v-207h-164z" />
<glyph unicode="&#xa9;" d="M111 723q0 311 212 529t515 218q305 0 519 -218t214 -529t-214 -529.5t-519 -218.5q-303 0 -515 218.5t-212 529.5zM260 723q0 -256 167 -432t411 -176q248 0 415.5 176t167.5 432t-168 432t-415 176q-244 0 -411 -176t-167 -432zM449 721q0 168 111.5 288.5t291.5 120.5 q195 0 311 -165l23 -37l-125 -68q-8 14 -23.5 36t-67.5 57.5t-112 35.5q-117 0 -185.5 -79t-68.5 -189q0 -115 67.5 -191.5t186.5 -76.5q59 0 110.5 32.5t71.5 63.5l21 33l125 -68q-4 -8 -12.5 -21.5t-38 -49t-64.5 -62.5t-94 -48.5t-125 -21.5q-180 0 -291.5 120 t-111.5 290z" />
<glyph unicode="&#xaa;" horiz-adv-x="864" d="M150 543v116h563v-116h-563zM152 981q0 225 385 225h20v13q0 129 -131 129q-39 0 -82 -14.5t-65 -28.5l-23 -15l-59 101q92 76 247 75q127 0 194 -66.5t67 -191.5v-411h-140v94h-4q-6 -12 -19.5 -30.5t-61.5 -48.5t-107 -30q-88 0 -154.5 53.5t-66.5 145.5zM299 991 q0 -37 27.5 -62.5t76.5 -25.5q68 0 111 56.5t43 125.5v17h-25q-233 0 -233 -111z" />
<glyph unicode="&#xab;" horiz-adv-x="1138" d="M90 578l336 421h199l-336 -421l336 -420h-199zM502 578l336 421h198l-336 -421l336 -420h-198z" />
<glyph unicode="&#xac;" horiz-adv-x="1257" d="M123 696v160h977v-547h-166v387h-811z" />
<glyph unicode="&#xad;" horiz-adv-x="882" d="M143 496v176h598v-176h-598z" />
<glyph unicode="&#xae;" d="M111 723q0 311 212 529t515 218q305 0 519 -218t214 -529t-214 -529.5t-519 -218.5q-303 0 -515 218.5t-212 529.5zM260 723q0 -256 167 -432t411 -176q248 0 415.5 176t167.5 432t-168 432t-415 176q-244 0 -411 -176t-167 -432zM588 340v772h297q111 0 177 -64.5 t66 -170.5q0 -82 -43 -136.5t-98 -68.5v-4q8 -8 27 -43l147 -285h-160l-143 299h-125v-299h-145zM733 745h123q57 0 91 35t34 97q0 59 -34 91.5t-91 32.5h-123v-256z" />
<glyph unicode="&#xaf;" horiz-adv-x="1021" d="M250 1606v143h522v-143h-522z" />
<glyph unicode="&#xb0;" horiz-adv-x="796" d="M88 1167q0 125 90 214t219 89t220.5 -89t91.5 -214t-91.5 -214t-220.5 -89t-219 88t-90 215zM246 1167.5q0 -63.5 44 -107.5t107.5 -44t107.5 44t44 107.5t-44 108.5t-107.5 45t-107.5 -45t-44 -108.5z" />
<glyph unicode="&#xb1;" horiz-adv-x="1394" d="M156 504v160h458v503h168v-503h457v-160h-457v-504h-168v504h-458zM188 -195h1018v-159h-1018v159z" />
<glyph unicode="&#xb2;" horiz-adv-x="796" d="M96 940q0 96 45 171t108.5 121t127 86t108.5 87t45 102q0 57 -42 95t-105 38q-96 -4 -172 -98l-100 92l11 17q7 10 32.5 34.5t56.5 44t79 36t101 16.5q127 0 211 -75t84 -194q0 -82 -42 -147.5t-103.5 -107t-123 -78.5t-105.5 -81t-48 -98h436v-135h-598q0 8 -2 23.5 t-3 28t-1 22.5z" />
<glyph unicode="&#xb3;" horiz-adv-x="796" d="M82 981l86 109q8 -12 24.5 -29t70.5 -45.5t114 -28.5q68 0 119 45t51 111q0 68 -54.5 106.5t-127.5 38.5h-70l-33 78l182 211l50 49v4q-39 -6 -74 -6h-289v137h555v-98l-223 -258q102 -14 170.5 -81t68.5 -181q0 -121 -91 -209t-228 -88q-92 0 -167 33.5t-105 66.5z" />
<glyph unicode="&#xb4;" horiz-adv-x="1021" d="M330 1546l149 260h213l-196 -260h-166z" />
<glyph unicode="&#xb5;" horiz-adv-x="1267" d="M170 -410v1446h199v-618q0 -125 40 -191.5t152 -66.5q154 0 246 114.5t92 276.5v485h199v-1036h-193v141l4 72h-6q-4 -10 -12 -25.5t-40 -56.5t-72 -72.5t-108.5 -57.5t-148.5 -26q-131 2 -186 64h-4q14 -100 14 -160v-289h-176z" />
<glyph unicode="&#x3bc;" horiz-adv-x="1267" d="M170 -410v1446h199v-618q0 -125 40 -191.5t152 -66.5q154 0 246 114.5t92 276.5v485h199v-1036h-193v141l4 72h-6q-4 -10 -12 -25.5t-40 -56.5t-72 -72.5t-108.5 -57.5t-148.5 -26q-131 2 -186 64h-4q14 -100 14 -160v-289h-176z" />
<glyph unicode="&#xb6;" horiz-adv-x="1208" d="M88 970.5q0 200.5 142.5 338t340.5 137.5h557v-176h-401v-1372h-154v596q-199 0 -342 138t-143 338.5zM854 -102v1255h152v-1255h-152z" />
<glyph unicode="&#xb7;" horiz-adv-x="563" d="M180 489v211h203v-211h-203z" />
<glyph unicode="&#xb8;" horiz-adv-x="1021" d="M350 -291q41 -14 86 -14q98 0 98.5 63.5t-108.5 63.5l-37 -2l60 227l100 -20v-17l-25 -112q66 -8 107 -47t41 -103q0 -88 -60.5 -130t-148.5 -42l-113 14v119z" />
<glyph unicode="&#xb9;" horiz-adv-x="796" d="M133 1550l217 211h139v-760h187v-135h-531v135h191v510l4 54h-4q-8 -18 -37 -45l-72 -70z" />
<glyph unicode="&#xba;" horiz-adv-x="956" d="M127 1130q0 145 101.5 241.5t246.5 96.5q147 0 249.5 -96t102.5 -242q0 -150 -101 -247t-248.5 -97t-249 97t-101.5 247zM160 543v116h639v-116h-639zM274 1130q0 -92 58.5 -152t144.5 -60q84 0 142.5 60t58.5 152q0 90 -58.5 148.5t-142.5 58.5q-86 0 -144.5 -58.5 t-58.5 -148.5z" />
<glyph unicode="&#xbb;" horiz-adv-x="1140" d="M102 158l336 420l-336 421h199l336 -421l-336 -420h-199zM516 158l336 420l-336 421h199l336 -421l-336 -420h-199z" />
<glyph unicode="&#xbc;" horiz-adv-x="1980" d="M109 1235l217 211h139v-760h186v-135h-530v135h190v510l4 53h-4q-8 -18 -37 -45l-71 -69zM535 0l688 1446h153l-688 -1446h-153zM1167 219v103l412 573h166v-541h125v-135h-125v-219h-152v219h-426zM1335 354h258v252l6 119h-4q-29 -55 -59 -98l-201 -269v-4z" />
<glyph unicode="&#xbd;" horiz-adv-x="1968" d="M109 1235l217 211h139v-760h186v-135h-530v135h190v510l4 53h-4q-8 -18 -37 -45l-71 -69zM539 0l688 1446h153l-688 -1446h-153zM1229 74q0 96 45 170.5t108.5 121t127 86.5t108.5 87t45 102q0 57 -42 95t-105 38q-96 -4 -173 -98l-100 92l11 16q7 10 33 35t56.5 44.5 t78.5 35.5t102 16q127 0 211 -74.5t84 -193.5q0 -82 -42 -147.5t-103.5 -107.5t-123 -79t-105.5 -81t-48 -97h436v-135h-598q0 8 -2 23.5t-3 28t-1 22.5z" />
<glyph unicode="&#xbe;" horiz-adv-x="2004" d="M82 666l86 108q8 -12 24.5 -28.5t70.5 -45t114 -28.5q68 0 119 45t51 110q0 68 -54.5 107t-127.5 39h-70l-33 78l182 211l50 49v4q-39 -6 -74 -6h-289v137h555v-98l-223 -258q102 -14 170.5 -81t68.5 -182q0 -121 -91 -209t-228 -88q-92 0 -167 34t-105 67zM559 0 l688 1446h154l-688 -1446h-154zM1192 219v103l412 573h165v-541h125v-135h-125v-219h-151v219h-426zM1360 354h258v252l6 119h-4q-29 -55 -59 -98l-201 -269v-4z" />
<glyph unicode="&#xbf;" horiz-adv-x="921" d="M80 -57q0 94 37 168.5t90 125t107.5 96.5t91 104.5t36.5 125.5v76h193v-88q0 -86 -36 -157.5t-86 -120.5l-101 -93q-51 -45 -87 -101t-36 -120q0 -86 66.5 -145.5t166.5 -59.5q57 0 115.5 22.5t87.5 43.5l31 22l108 -141q-6 -6 -16 -14.5t-45 -31t-74 -39.5t-98.5 -31.5 t-122.5 -14.5q-178 0 -303 103.5t-125 269.5zM438 838v198h203v-198h-203z" />
<glyph unicode="&#xc0;" horiz-adv-x="1286" d="M16 0l521 1446h213l520 -1446h-211l-146 416h-544l-144 -416h-209zM369 1806h213l149 -260h-168zM422 584h438l-160 458l-55 205h-4q-33 -131 -57 -205z" />
<glyph unicode="&#xc1;" horiz-adv-x="1286" d="M16 0l521 1446h213l520 -1446h-211l-146 416h-544l-144 -416h-209zM422 584h438l-160 458l-55 205h-4q-33 -131 -57 -205zM553 1546l149 260h213l-196 -260h-166z" />
<glyph unicode="&#xc2;" horiz-adv-x="1286" d="M16 0l521 1446h213l520 -1446h-211l-146 416h-544l-144 -416h-209zM358 1546l181 260h206l181 -260h-174l-109 164h-4l-107 -164h-174zM422 584h438l-160 458l-55 205h-4q-33 -131 -57 -205z" />
<glyph unicode="&#xc3;" horiz-adv-x="1286" d="M16 0l521 1446h213l520 -1446h-211l-146 416h-544l-144 -416h-209zM299 1548q0 260 209 260q59 0 104 -34.5t82 -69.5t72 -35q41 0 60.5 40t19.5 93h143q0 -260 -209 -260q-59 0 -104 35t-82 69.5t-72 34.5q-80 0 -80 -133h-143zM422 584h438l-160 458l-55 205h-4 q-33 -131 -57 -205z" />
<glyph unicode="&#xc4;" horiz-adv-x="1286" d="M16 0l521 1446h213l520 -1446h-211l-146 416h-544l-144 -416h-209zM391 1599v207h164v-207h-164zM422 584h438l-160 458l-55 205h-4q-33 -131 -57 -205zM733 1599v207h164v-207h-164z" />
<glyph unicode="&#xc5;" horiz-adv-x="1286" d="M16 0l521 1446h213l520 -1446h-211l-146 416h-544l-144 -416h-209zM422 584h438l-160 458l-55 205h-4q-33 -131 -57 -205zM469 1673q0 70 51 112t123 42t123 -42t51 -112q0 -68 -51 -109.5t-123 -41.5t-123 41.5t-51 109.5zM575 1673q0 -29 18.5 -48t49.5 -19 q29 0 48.5 19.5t19.5 47.5q0 33 -19.5 52.5t-48.5 19.5q-31 0 -49.5 -19.5t-18.5 -52.5z" />
<glyph unicode="&#xc6;" horiz-adv-x="1798" d="M8 0l598 1446h1057v-176h-639v-453h520v-176h-520v-465h674v-176h-875v643h-346l-258 -643h-211zM545 811h278v459h-94z" />
<glyph unicode="&#xc7;" horiz-adv-x="1482" d="M102 731q0 315 210 527t526 212q98 0 188 -19t148.5 -47t103.5 -56.5t65 -49.5l21 -18l-100 -152q-18 18 -53 44t-145 70t-220 44q-238 0 -386.5 -158.5t-148.5 -394.5q0 -238 150.5 -404.5t386.5 -166.5q121 0 232.5 47t162.5 94l51 47l109 -145l-23 -24 q-14 -15 -65 -52t-108.5 -66.5t-147.5 -56t-187 -31.5l-16 -77q66 -8 107 -47t41 -103q0 -88 -60.5 -130t-148.5 -42l-113 14v119q41 -14 86 -14q98 0 98 63.5t-108 63.5l-37 -2l41 160q-291 27 -475.5 238.5t-184.5 512.5z" />
<glyph unicode="&#xc8;" horiz-adv-x="1173" d="M197 0v1446h839v-176h-637v-453h519v-176h-519v-465h672v-176h-874zM365 1806h213l149 -260h-168z" />
<glyph unicode="&#xc9;" horiz-adv-x="1173" d="M197 0v1446h839v-176h-637v-453h519v-176h-519v-465h672v-176h-874zM551 1546l149 260h213l-196 -260h-166z" />
<glyph unicode="&#xca;" horiz-adv-x="1173" d="M197 0v1446h839v-176h-637v-453h519v-176h-519v-465h672v-176h-874zM356 1546l181 260h206l181 -260h-174l-109 164h-4l-107 -164h-174z" />
<glyph unicode="&#xcb;" horiz-adv-x="1173" d="M197 0v1446h839v-176h-637v-453h519v-176h-519v-465h672v-176h-874zM387 1599v207h164v-207h-164zM729 1599v207h164v-207h-164z" />
<glyph unicode="&#xcc;" horiz-adv-x="595" d="M25 1806h213l149 -260h-168zM197 0v1446h202v-1446h-202z" />
<glyph unicode="&#xcd;" horiz-adv-x="595" d="M197 0v1446h202v-1446h-202zM211 1546l149 260h213l-196 -260h-166z" />
<glyph unicode="&#xce;" horiz-adv-x="595" d="M14 1546l181 260h206l181 -260h-174l-109 164h-4l-107 -164h-174zM197 0v1446h202v-1446h-202z" />
<glyph unicode="&#xcf;" horiz-adv-x="595" d="M47 1599v207h164v-207h-164zM197 0v1446h202v-1446h-202zM389 1599v207h164v-207h-164z" />
<glyph unicode="&#xd0;" horiz-adv-x="1554" d="M115 639v168h121v639h479q336 0 534.5 -191.5t198.5 -529.5q0 -340 -198.5 -532.5t-534.5 -192.5h-479v639h-121zM438 176h262q248 0 393.5 143.5t145.5 405.5q0 260 -145.5 402.5t-393.5 142.5h-262v-463h305v-168h-305v-463z" />
<glyph unicode="&#xd1;" horiz-adv-x="1550" d="M197 0v1446h200l643 -940q25 -35 55 -87l48 -87l18 -35h4q-14 129 -14 209v940h203v-1446h-199l-645 938q-53 80 -121 211h-4q14 -129 14 -211v-938h-202zM430 1548q0 260 209 260q59 0 104 -34.5t82 -69.5t72 -35q41 0 60.5 40t19.5 93h143q0 -260 -209 -260 q-59 0 -104 35t-82 69.5t-72 34.5q-80 0 -80 -133h-143z" />
<glyph unicode="&#xd2;" d="M98 733q0 311 215 524t528.5 213t527.5 -213t214 -524q0 -319 -214 -538.5t-527.5 -219.5t-528.5 219.5t-215 538.5zM307 733q0 -242 155.5 -406.5t379 -164.5t378 165t154.5 406q0 236 -154.5 394.5t-378 158.5t-379 -158.5t-155.5 -394.5zM567 1806h213l150 -260h-168z " />
<glyph unicode="&#xd3;" d="M98 733q0 311 215 524t528.5 213t527.5 -213t214 -524q0 -319 -214 -538.5t-527.5 -219.5t-528.5 219.5t-215 538.5zM307 733q0 -242 155.5 -406.5t379 -164.5t378 165t154.5 406q0 236 -154.5 394.5t-378 158.5t-379 -158.5t-155.5 -394.5zM754 1546l149 260h213 l-196 -260h-166z" />
<glyph unicode="&#xd4;" d="M98 733q0 311 215 524t528.5 213t527.5 -213t214 -524q0 -319 -214 -538.5t-527.5 -219.5t-528.5 219.5t-215 538.5zM307 733q0 -242 155.5 -406.5t379 -164.5t378 165t154.5 406q0 236 -154.5 394.5t-378 158.5t-379 -158.5t-155.5 -394.5zM557 1546l180 260h207 l180 -260h-174l-108 164h-4l-107 -164h-174z" />
<glyph unicode="&#xd5;" d="M98 733q0 311 215 524t528.5 213t527.5 -213t214 -524q0 -319 -214 -538.5t-527.5 -219.5t-528.5 219.5t-215 538.5zM307 733q0 -242 155.5 -406.5t379 -164.5t378 165t154.5 406q0 236 -154.5 394.5t-378 158.5t-379 -158.5t-155.5 -394.5zM498 1548q0 260 209 260 q59 0 104 -34.5t82 -69.5t72 -35q41 0 60 40t19 93h144q0 -260 -209 -260q-59 0 -104.5 35t-82 69.5t-71.5 34.5q-80 0 -80 -133h-143z" />
<glyph unicode="&#xd6;" d="M98 733q0 311 215 524t528.5 213t527.5 -213t214 -524q0 -319 -214 -538.5t-527.5 -219.5t-528.5 219.5t-215 538.5zM307 733q0 -242 155.5 -406.5t379 -164.5t378 165t154.5 406q0 236 -154.5 394.5t-378 158.5t-379 -158.5t-155.5 -394.5zM590 1599v207h164v-207h-164z M932 1599v207h164v-207h-164z" />
<glyph unicode="&#xd7;" horiz-adv-x="1320" d="M129 113l422 471l-422 471l113 112l417 -467l420 467l113 -112l-424 -471l424 -471l-113 -113l-420 465l-417 -465z" />
<glyph unicode="&#xd8;" horiz-adv-x="1687" d="M102 733q0 311 215 524t529 213q205 0 379 -100l94 129l100 -69l-94 -132q123 -102 192.5 -248.5t69.5 -316.5q0 -319 -214 -538.5t-527 -219.5q-217 0 -393 109l-97 -135l-102 69l100 142q-119 104 -185.5 252.5t-66.5 320.5zM311 733q0 -246 160 -411l641 890 q-121 74 -266 74q-223 0 -379 -158.5t-156 -394.5zM567 242q125 -80 279 -80q223 0 377.5 165t154.5 406q0 248 -168 406z" />
<glyph unicode="&#xd9;" horiz-adv-x="1490" d="M176 512v934h203v-934q0 -164 98 -257t266 -93q170 0 269.5 93t99.5 261v930h203v-934q0 -240 -158 -388.5t-411.5 -148.5t-411.5 148.5t-158 388.5zM471 1806h213l150 -260h-168z" />
<glyph unicode="&#xda;" horiz-adv-x="1490" d="M176 512v934h203v-934q0 -164 98 -257t266 -93q170 0 269.5 93t99.5 261v930h203v-934q0 -240 -158 -388.5t-411.5 -148.5t-411.5 148.5t-158 388.5zM655 1546l150 260h213l-197 -260h-166z" />
<glyph unicode="&#xdb;" horiz-adv-x="1490" d="M176 512v934h203v-934q0 -164 98 -257t266 -93q170 0 269.5 93t99.5 261v930h203v-934q0 -240 -158 -388.5t-411.5 -148.5t-411.5 148.5t-158 388.5zM461 1546l180 260h207l180 -260h-174l-109 164h-4l-106 -164h-174z" />
<glyph unicode="&#xdc;" horiz-adv-x="1490" d="M176 512v934h203v-934q0 -164 98 -257t266 -93q170 0 269.5 93t99.5 261v930h203v-934q0 -240 -158 -388.5t-411.5 -148.5t-411.5 148.5t-158 388.5zM494 1599v207h163v-207h-163zM836 1599v207h163v-207h-163z" />
<glyph unicode="&#xdd;" horiz-adv-x="1204" d="M16 1446h230l268 -475l88 -183h4q43 100 88 183l264 475h230l-483 -834v-612h-203v612zM514 1546l150 260h213l-197 -260h-166z" />
<glyph unicode="&#xde;" horiz-adv-x="1243" d="M197 0v1446h200v-246h328q201 0 327 -124t126 -328.5t-127 -331.5t-328 -127h-326v-289h-200zM397 465h295q131 0 206 75.5t75 207.5q0 129 -75 202.5t-204 73.5h-297v-559z" />
<glyph unicode="&#xdf;" horiz-adv-x="1204" d="M156 0v1085q0 180 131 282.5t311 102.5q168 0 278.5 -95t110.5 -234q0 -68 -31.5 -126.5t-70.5 -93t-71 -77.5t-32 -84q0 -35 38 -72t92.5 -73.5t107.5 -78.5t91 -104.5t38 -134.5q0 -147 -102.5 -229t-247.5 -82q-84 0 -157 14t-103 29l-31 16v176q115 -63 266 -63 q74 0 123 36.5t49 110.5q0 55 -57.5 109.5t-126 94.5t-125.5 105.5t-57 139.5q0 57 32.5 110.5t70.5 89t70.5 86t32.5 99.5q0 66 -51 112.5t-143 46.5q-98 0 -168 -59t-70 -168v-1071h-198z" />
<glyph unicode="&#xe0;" horiz-adv-x="1081" d="M72 291q0 356 624 356h45v19q0 227 -227 227q-156 -2 -289 -100l-82 145q16 14 48 34.5t132.5 54.5t206.5 34q197 0 303.5 -104.5t106.5 -301.5v-655h-184v98l4 82h-4l-12 -22q-7 -14 -34.5 -49t-61.5 -62t-94 -49.5t-130 -22.5q-143 0 -247.5 84.5t-104.5 231.5z M264 1446h213l150 -260h-168zM272 301q0 -68 51.5 -117t143.5 -49q119 0 197.5 103.5t78.5 226.5v33h-51q-420 0 -420 -197z" />
<glyph unicode="&#xe1;" horiz-adv-x="1081" d="M72 291q0 356 624 356h45v19q0 227 -227 227q-156 -2 -289 -100l-82 145q16 14 48 34.5t132.5 54.5t206.5 34q197 0 303.5 -104.5t106.5 -301.5v-655h-184v98l4 82h-4l-12 -22q-7 -14 -34.5 -49t-61.5 -62t-94 -49.5t-130 -22.5q-143 0 -247.5 84.5t-104.5 231.5z M272 301q0 -68 51.5 -117t143.5 -49q119 0 197.5 103.5t78.5 226.5v33h-51q-420 0 -420 -197zM446 1186l150 260h213l-197 -260h-166z" />
<glyph unicode="&#xe2;" horiz-adv-x="1081" d="M72 291q0 356 624 356h45v19q0 227 -227 227q-156 -2 -289 -100l-82 145q16 14 48 34.5t132.5 54.5t206.5 34q197 0 303.5 -104.5t106.5 -301.5v-655h-184v98l4 82h-4l-12 -22q-7 -14 -34.5 -49t-61.5 -62t-94 -49.5t-130 -22.5q-143 0 -247.5 84.5t-104.5 231.5z M252 1186l180 260h207l180 -260h-174l-108 164h-5l-106 -164h-174zM272 301q0 -68 51.5 -117t143.5 -49q119 0 197.5 103.5t78.5 226.5v33h-51q-420 0 -420 -197z" />
<glyph unicode="&#xe3;" horiz-adv-x="1081" d="M72 291q0 356 624 356h45v19q0 227 -227 227q-156 -2 -289 -100l-82 145q16 14 48 34.5t132.5 54.5t206.5 34q197 0 303.5 -104.5t106.5 -301.5v-655h-184v98l4 82h-4l-12 -22q-7 -14 -34.5 -49t-61.5 -62t-94 -49.5t-130 -22.5q-143 0 -247.5 84.5t-104.5 231.5z M193 1188q0 260 208 260q59 0 104.5 -35t82.5 -69.5t71 -34.5q41 0 60.5 40t19.5 93h144q0 -260 -209 -260q-59 0 -104.5 34.5t-82 69.5t-71.5 35q-80 0 -80 -133h-143zM272 301q0 -68 51.5 -117t143.5 -49q119 0 197.5 103.5t78.5 226.5v33h-51q-420 0 -420 -197z" />
<glyph unicode="&#xe4;" horiz-adv-x="1081" d="M72 291q0 356 624 356h45v19q0 227 -227 227q-156 -2 -289 -100l-82 145q16 14 48 34.5t132.5 54.5t206.5 34q197 0 303.5 -104.5t106.5 -301.5v-655h-184v98l4 82h-4l-12 -22q-7 -14 -34.5 -49t-61.5 -62t-94 -49.5t-130 -22.5q-143 0 -247.5 84.5t-104.5 231.5z M272 301q0 -68 51.5 -117t143.5 -49q119 0 197.5 103.5t78.5 226.5v33h-51q-420 0 -420 -197zM285 1239v207h164v-207h-164zM627 1239v207h164v-207h-164z" />
<glyph unicode="&#xe5;" horiz-adv-x="1081" d="M72 291q0 356 624 356h45v19q0 227 -227 227q-156 -2 -289 -100l-82 145q16 14 48 34.5t132.5 54.5t206.5 34q197 0 303.5 -104.5t106.5 -301.5v-655h-184v98l4 82h-4l-12 -22q-7 -14 -34.5 -49t-61.5 -62t-94 -49.5t-130 -22.5q-143 0 -247.5 84.5t-104.5 231.5z M272 301q0 -68 51.5 -117t143.5 -49q119 0 197.5 103.5t78.5 226.5v33h-51q-420 0 -420 -197zM362 1313q0 70 51.5 111.5t123 41.5t123 -42t51.5 -111q0 -68 -51.5 -110t-123 -42t-123 42t-51.5 110zM469 1313q0 -29 18.5 -48.5t49.5 -19.5q29 0 48 19.5t19 48.5 q0 33 -19.5 52t-47.5 19q-31 0 -49.5 -19t-18.5 -52z" />
<glyph unicode="&#xe6;" horiz-adv-x="1769" d="M74 291q0 92 45 160.5t109.5 104.5t155.5 58.5t160.5 27.5t147.5 5h51v19q0 227 -233 227q-70 0 -140.5 -24.5t-107.5 -49.5l-37 -26l-80 145q6 4 17.5 13.5t48.5 29.5t78 36.5t105.5 30t129.5 13.5q260 0 344 -182h4q123 182 379 182q203 0 317.5 -142.5t114.5 -361.5 l-4 -59h-743q8 -170 103.5 -260.5t240.5 -90.5q80 0 156.5 30t113.5 61l37 28l82 -143q-16 -16 -49 -41t-137.5 -66t-212.5 -41q-154 0 -268.5 69t-178.5 192h-4q-10 -29 -32.5 -65t-67.5 -84t-121 -80t-170 -32q-150 0 -252 85.5t-102 230.5zM276 301q0 -70 50.5 -118 t144.5 -48q121 0 197.5 103.5t76.5 228.5v31h-96q-373 0 -373 -197zM944 647h539q-4 125 -74 190.5t-172 65.5q-117 0 -195 -64.5t-98 -191.5z" />
<glyph unicode="&#xe7;" horiz-adv-x="1122" d="M84 518q0 231 156.5 387t398.5 156q115 0 212 -38t136 -77l41 -37l-94 -139q-12 12 -36 32.5t-98.5 53.5t-152.5 33q-156 0 -258 -104.5t-102 -264.5t103.5 -266.5t262.5 -106.5q86 0 166 35t117 70l37 35l80 -146l-17 -16q-10 -10 -47 -38t-79 -49.5t-108.5 -41 t-137.5 -21.5l-17 -77q66 -8 107 -47t41 -103q0 -88 -60.5 -130t-148.5 -42l-113 14v119q41 -14 86 -14q98 0 98 63.5t-108 63.5l-37 -2l41 162q-209 29 -339 176t-130 360z" />
<glyph unicode="&#xe8;" horiz-adv-x="1136" d="M84 518q0 244 146.5 393.5t371.5 149.5q211 0 330 -137.5t119 -348.5l-7 -86h-755q8 -164 109.5 -253t246.5 -89q164 0 299 115l8 6l82 -145q-16 -16 -49 -41t-137.5 -66t-214.5 -41q-242 0 -395.5 155t-153.5 388zM295 639h553q-4 129 -75 196.5t-175 67.5 q-117 0 -200 -69.5t-103 -194.5zM330 1446h213l149 -260h-168z" />
<glyph unicode="&#xe9;" horiz-adv-x="1136" d="M84 518q0 244 146.5 393.5t371.5 149.5q211 0 330 -137.5t119 -348.5l-7 -86h-755q8 -164 109.5 -253t246.5 -89q164 0 299 115l8 6l82 -145q-16 -16 -49 -41t-137.5 -66t-214.5 -41q-242 0 -395.5 155t-153.5 388zM295 639h553q-4 129 -75 196.5t-175 67.5 q-117 0 -200 -69.5t-103 -194.5zM514 1186l150 260h213l-197 -260h-166z" />
<glyph unicode="&#xea;" horiz-adv-x="1136" d="M84 518q0 244 146.5 393.5t371.5 149.5q211 0 330 -137.5t119 -348.5l-7 -86h-755q8 -164 109.5 -253t246.5 -89q164 0 299 115l8 6l82 -145q-16 -16 -49 -41t-137.5 -66t-214.5 -41q-242 0 -395.5 155t-153.5 388zM295 639h553q-4 129 -75 196.5t-175 67.5 q-117 0 -200 -69.5t-103 -194.5zM317 1186l181 260h207l180 -260h-174l-109 164h-4l-106 -164h-175z" />
<glyph unicode="&#xeb;" horiz-adv-x="1136" d="M84 518q0 244 146.5 393.5t371.5 149.5q211 0 330 -137.5t119 -348.5l-7 -86h-755q8 -164 109.5 -253t246.5 -89q164 0 299 115l8 6l82 -145q-16 -16 -49 -41t-137.5 -66t-214.5 -41q-242 0 -395.5 155t-153.5 388zM295 639h553q-4 129 -75 196.5t-175 67.5 q-117 0 -200 -69.5t-103 -194.5zM350 1239v207h164v-207h-164zM692 1239v207h164v-207h-164z" />
<glyph unicode="&#xec;" horiz-adv-x="509" d="M-18 1446h213l149 -260h-168zM156 0v1036h198v-1036h-198z" />
<glyph unicode="&#xed;" horiz-adv-x="509" d="M156 0v1036h198v-1036h-198zM168 1186l149 260h213l-196 -260h-166z" />
<glyph unicode="&#xee;" horiz-adv-x="509" d="M-27 1186l181 260h206l181 -260h-174l-109 164h-4l-107 -164h-174zM156 0v1036h198v-1036h-198z" />
<glyph unicode="&#xef;" horiz-adv-x="509" d="M4 1239v207h164v-207h-164zM156 0v1036h198v-1036h-198zM346 1239v207h164v-207h-164z" />
<glyph unicode="&#xf0;" horiz-adv-x="1206" d="M88 481q0 193 130 333t355 140q158 -2 252 -86h4q-61 164 -223 273l-370 -164l-21 127l254 113q-125 63 -264 94l55 162q238 -53 424 -164l285 125l18 -125l-188 -86q295 -246 295 -660q0 -109 -30 -209t-89.5 -187t-163.5 -139.5t-238 -52.5q-223 0 -354 150.5 t-131 355.5zM289 477q0 -135 76.5 -232.5t212.5 -97.5q80 0 142 34t98 91.5t54.5 122t18.5 133.5q0 117 -79 192t-210 75q-150 0 -231.5 -93.5t-81.5 -224.5z" />
<glyph unicode="&#xf1;" horiz-adv-x="1234" d="M156 0v1036h192v-137l-4 -76h4q41 88 139.5 163t249.5 75q356 0 357 -397v-664h-199v618q0 125 -41 193t-156 68q-117 0 -206 -71t-121 -183q-16 -55 -17 -140v-485h-198zM297 1188q0 260 209 260q59 0 104 -35t82 -69.5t72 -34.5q41 0 60.5 40t19.5 93h143 q0 -260 -209 -260q-59 0 -104 34.5t-82 69.5t-72 35q-80 0 -80 -133h-143z" />
<glyph unicode="&#xf2;" horiz-adv-x="1277" d="M80 520.5q0 233.5 161.5 387t397 153.5t397.5 -153.5t162 -387t-163 -389.5t-396 -156t-396 156t-163 389.5zM283 520q0 -160 104.5 -266.5t251.5 -106.5q150 0 253 105.5t103 267.5q0 160 -103.5 264.5t-252.5 104.5q-147 0 -251.5 -104.5t-104.5 -264.5zM365 1446h213 l149 -260h-168z" />
<glyph unicode="&#xf3;" horiz-adv-x="1277" d="M80 520.5q0 233.5 161.5 387t397 153.5t397.5 -153.5t162 -387t-163 -389.5t-396 -156t-396 156t-163 389.5zM283 520q0 -160 104.5 -266.5t251.5 -106.5q150 0 253 105.5t103 267.5q0 160 -103.5 264.5t-252.5 104.5q-147 0 -251.5 -104.5t-104.5 -264.5zM551 1186 l149 260h213l-196 -260h-166z" />
<glyph unicode="&#xf4;" horiz-adv-x="1277" d="M80 520.5q0 233.5 161.5 387t397 153.5t397.5 -153.5t162 -387t-163 -389.5t-396 -156t-396 156t-163 389.5zM283 520q0 -160 104.5 -266.5t251.5 -106.5q150 0 253 105.5t103 267.5q0 160 -103.5 264.5t-252.5 104.5q-147 0 -251.5 -104.5t-104.5 -264.5zM356 1186 l181 260h206l181 -260h-174l-109 164h-4l-107 -164h-174z" />
<glyph unicode="&#xf5;" horiz-adv-x="1277" d="M80 520.5q0 233.5 161.5 387t397 153.5t397.5 -153.5t162 -387t-163 -389.5t-396 -156t-396 156t-163 389.5zM283 520q0 -160 104.5 -266.5t251.5 -106.5q150 0 253 105.5t103 267.5q0 160 -103.5 264.5t-252.5 104.5q-147 0 -251.5 -104.5t-104.5 -264.5zM295 1188 q0 260 209 260q59 0 104 -35t82 -69.5t72 -34.5q41 0 60.5 40t19.5 93h143q0 -260 -209 -260q-59 0 -104 34.5t-82 69.5t-72 35q-80 0 -80 -133h-143z" />
<glyph unicode="&#xf6;" horiz-adv-x="1277" d="M80 520.5q0 233.5 161.5 387t397 153.5t397.5 -153.5t162 -387t-163 -389.5t-396 -156t-396 156t-163 389.5zM283 520q0 -160 104.5 -266.5t251.5 -106.5q150 0 253 105.5t103 267.5q0 160 -103.5 264.5t-252.5 104.5q-147 0 -251.5 -104.5t-104.5 -264.5zM387 1239v207 h164v-207h-164zM729 1239v207h164v-207h-164z" />
<glyph unicode="&#xf7;" horiz-adv-x="1300" d="M133 504v160h1034v-160h-1034zM553 90v186h192v-186h-192zM553 891v186h192v-186h-192z" />
<glyph unicode="&#xf8;" horiz-adv-x="1277" d="M80 520q0 233 161.5 387t397.5 154q147 0 276 -68l82 113l97 -70l-80 -110q184 -158 184 -406q0 -233 -163 -389t-396 -156q-137 0 -262 60l-80 -113l-98 72l75 106q-194 158 -194 420zM283 520q0 -160 102 -266l426 592q-82 43 -172 43q-147 0 -251.5 -104.5 t-104.5 -264.5zM483 182q74 -35 156 -35q150 0 253 105.5t103 267.5q0 147 -92 250z" />
<glyph unicode="&#xf9;" horiz-adv-x="1224" d="M141 373v663h199v-618q0 -125 40 -191.5t155 -66.5q152 0 243.5 114.5t91.5 276.5v485h199v-1036h-192v137l4 76h-4q-39 -90 -140.5 -164t-240.5 -74q-355 1 -355 398zM332 1446h213l149 -260h-168z" />
<glyph unicode="&#xfa;" horiz-adv-x="1224" d="M141 373v663h199v-618q0 -125 40 -191.5t155 -66.5q152 0 243.5 114.5t91.5 276.5v485h199v-1036h-192v137l4 76h-4q-39 -90 -140.5 -164t-240.5 -74q-355 1 -355 398zM516 1186l150 260h213l-197 -260h-166z" />
<glyph unicode="&#xfb;" horiz-adv-x="1224" d="M141 373v663h199v-618q0 -125 40 -191.5t155 -66.5q152 0 243.5 114.5t91.5 276.5v485h199v-1036h-192v137l4 76h-4q-39 -90 -140.5 -164t-240.5 -74q-355 1 -355 398zM322 1186l180 260h207l180 -260h-174l-109 164h-4l-106 -164h-174z" />
<glyph unicode="&#xfc;" horiz-adv-x="1224" d="M141 373v663h199v-618q0 -125 40 -191.5t155 -66.5q152 0 243.5 114.5t91.5 276.5v485h199v-1036h-192v137l4 76h-4q-39 -90 -140.5 -164t-240.5 -74q-355 1 -355 398zM354 1239v207h164v-207h-164zM696 1239v207h164v-207h-164z" />
<glyph unicode="&#xfd;" horiz-adv-x="1044" d="M4 1036h223l260 -678l39 -125h4q16 70 35 123l252 680h215l-485 -1222q-47 -117 -136 -180.5t-200 -63.5q-51 0 -101.5 16.5t-74.5 32.5l-25 14l70 152q57 -43 121 -43q123 0 186 152l51 118zM440 1186l150 260h213l-197 -260h-166z" />
<glyph unicode="&#xfe;" horiz-adv-x="1228" d="M156 -410v1856h198v-471l-2 -86h4q2 2 19 22l29 36q13 15 43 38t61 38t77 26.5t97 11.5q209 0 335 -151.5t126 -391t-130 -391.5t-337 -152q-66 0 -124 17.5t-93 43t-59.5 50.5t-34.5 41l-11 18h-4q4 -37 4 -90v-465h-198zM348 516q0 -162 81 -265.5t216 -103.5 q127 0 211 102.5t84 268.5q0 164 -80 267.5t-211 103.5q-129 0 -215 -92.5t-86 -280.5z" />
<glyph unicode="&#xff;" horiz-adv-x="1044" d="M4 1036h223l260 -678l39 -125h4q16 70 35 123l252 680h215l-485 -1222q-47 -117 -136 -180.5t-200 -63.5q-51 0 -101.5 16.5t-74.5 32.5l-25 14l70 152q57 -43 121 -43q123 0 186 152l51 118zM276 1239v207h164v-207h-164zM618 1239v207h164v-207h-164z" />
<glyph unicode="&#x152;" horiz-adv-x="1966" d="M98 725q0 313 214 526t534 213q53 0 136 -9t116 -9h733v-176h-639v-453h520v-176h-520v-465h676v-176h-768q-33 0 -117 -9t-137 -9q-317 0 -532.5 214t-215.5 529zM307 725q0 -242 151.5 -404.5t387.5 -162.5q37 0 72.5 3t54.5 7l18 4v1102q-63 16 -145 16 q-236 0 -387.5 -162.5t-151.5 -402.5z" />
<glyph unicode="&#x153;" horiz-adv-x="2048" d="M82 516q0 240 160.5 392.5t392.5 152.5q301 0 448 -246h4q131 246 426 246q211 0 330 -137.5t119 -348.5l-6 -86h-756q12 -164 112.5 -253t243.5 -89q164 0 299 115l9 6l82 -145q-16 -16 -49 -41t-137.5 -66t-215.5 -41q-313 0 -452 252h-5q-145 -252 -452 -252 q-231 0 -392 150.5t-161 390.5zM285 516q0 -164 102 -266.5t251.5 -102.5t253 103.5t103.5 271.5q0 162 -104.5 264.5t-251.5 102.5t-250.5 -103.5t-103.5 -269.5zM1206 639h553q-4 127 -73.5 195.5t-174.5 68.5q-119 0 -202 -69.5t-103 -194.5z" />
<glyph unicode="&#x178;" horiz-adv-x="1204" d="M16 1446h230l268 -475l88 -183h4q43 100 88 183l264 475h230l-483 -834v-612h-203v612zM344 1599v207h164v-207h-164zM686 1599v207h164v-207h-164z" />
<glyph unicode="&#x2c6;" horiz-adv-x="1021" d="M227 1546l181 260h206l181 -260h-174l-109 164h-4l-107 -164h-174z" />
<glyph unicode="&#x2dc;" horiz-adv-x="1021" d="M166 1548q0 260 209 260q59 0 104 -34.5t82 -69.5t72 -35q41 0 60.5 40t19.5 93h143q0 -260 -209 -260q-59 0 -104 35t-82 69.5t-72 34.5q-80 0 -80 -133h-143z" />
<glyph unicode="&#x2000;" horiz-adv-x="913" />
<glyph unicode="&#x2001;" horiz-adv-x="1827" />
<glyph unicode="&#x2002;" horiz-adv-x="913" />
<glyph unicode="&#x2003;" horiz-adv-x="1827" />
<glyph unicode="&#x2004;" horiz-adv-x="609" />
<glyph unicode="&#x2005;" horiz-adv-x="456" />
<glyph unicode="&#x2006;" horiz-adv-x="304" />
<glyph unicode="&#x2007;" horiz-adv-x="304" />
<glyph unicode="&#x2008;" horiz-adv-x="228" />
<glyph unicode="&#x2009;" horiz-adv-x="365" />
<glyph unicode="&#x200a;" horiz-adv-x="101" />
<glyph unicode="&#x2010;" horiz-adv-x="966" d="M184 496v176h598v-176h-598z" />
<glyph unicode="&#x2011;" horiz-adv-x="966" d="M184 496v176h598v-176h-598z" />
<glyph unicode="&#x2012;" horiz-adv-x="966" d="M184 496v176h598v-176h-598z" />
<glyph unicode="&#x2013;" horiz-adv-x="1445" d="M184 504v160h1078v-160h-1078z" />
<glyph unicode="&#x2014;" horiz-adv-x="1855" d="M184 504v160h1487v-160h-1487z" />
<glyph unicode="&#x2018;" horiz-adv-x="464" d="M100 1069l136 399h145l-88 -399h-193z" />
<glyph unicode="&#x2019;" horiz-adv-x="448" d="M104 1071l89 399h192l-133 -399h-148z" />
<glyph unicode="&#x201a;" horiz-adv-x="499" d="M86 -184l88 399h186l-133 -399h-141z" />
<glyph unicode="&#x201c;" horiz-adv-x="755" d="M100 1069l136 399h147l-88 -399h-195zM389 1069l135 399h148l-88 -399h-195z" />
<glyph unicode="&#x201d;" horiz-adv-x="737" d="M104 1071l89 399h194l-135 -399h-148zM393 1071l88 399h195l-133 -399h-150z" />
<glyph unicode="&#x201e;" horiz-adv-x="784" d="M86 -184l88 399h186l-133 -399h-141zM369 -184l88 399h188l-133 -399h-143z" />
<glyph unicode="&#x2022;" horiz-adv-x="841" d="M104 596q0 133 93.5 225t224.5 92t223 -93t92 -224t-92 -224t-223 -93t-224.5 92t-93.5 225z" />
<glyph unicode="&#x2026;" horiz-adv-x="1576" d="M156 0v211h202v-211h-202zM686 0v211h205v-211h-205zM1219 0v211h202v-211h-202z" />
<glyph unicode="&#x202f;" horiz-adv-x="365" />
<glyph unicode="&#x2039;" horiz-adv-x="727" d="M90 578l336 421h199l-336 -421l336 -420h-199z" />
<glyph unicode="&#x203a;" horiz-adv-x="727" d="M102 158l336 420l-336 421h199l336 -421l-336 -420h-199z" />
<glyph unicode="&#x205f;" horiz-adv-x="456" />
<glyph unicode="&#x20ac;" horiz-adv-x="1210" d="M78 528v129h112q-8 82 0 148h-112v131h137q61 236 251.5 385t440.5 149q51 0 102.5 -6t77.5 -12l27 -6l-49 -186q-76 23 -162 22q-170 0 -296 -94t-177 -252h576l-27 -131h-578q-12 -68 -2 -148h553l-26 -129h-492q47 -162 177 -261t300 -99q45 0 92.5 6t69.5 14l25 7 l39 -185q-98 -35 -230 -35q-258 0 -447.5 153t-246.5 400h-135z" />
<glyph unicode="&#x2122;" horiz-adv-x="1925" d="M47 1309v137h778v-137h-311v-764h-156v764h-311zM891 545l72 901h141l213 -471l29 -86h4q12 49 26 86l213 471h144l69 -901h-153l-43 538l2 62h-4l-195 -434h-125l-194 434h-5l2 -62l-43 -538h-153z" />
<glyph unicode="&#xe000;" horiz-adv-x="1035" d="M0 1035h1035v-1035h-1035v1035z" />
<glyph unicode="&#xfb01;" horiz-adv-x="1198" d="M82 877v159h129v35q0 98 28.5 171t69.5 113t98.5 63.5t101.5 30.5t91 7l76 -6v-170q-20 4 -51 4q-35 0 -67 -7t-68.5 -27.5t-59 -67.5t-22.5 -115v-31h634v-1036h-198v877h-436v-877h-197v877h-129zM842 1243v203h200v-203h-200z" />
<glyph unicode="&#xfb02;" horiz-adv-x="1230" d="M82 862v160h129v49q0 98 28.5 171t69.5 113t98.5 63.5t101.5 30.5t91 7l76 -6v-170q-20 4 -51 4q-35 0 -67 -7t-68.5 -27.5t-59 -67.5t-22.5 -115v-45h245v-160h-245v-862h-197v862h-129zM831 283v1163h199v-1129q0 -86 28.5 -116.5t82.5 -30.5l35 2v-176q-31 -4 -66 -4 q-279 0 -279 291z" />
<glyph unicode="&#xfb03;" horiz-adv-x="1886" d="M82 877v159h129v35q0 98 28.5 171t69.5 113t98.5 63.5t101.5 30.5t91 7l76 -6v-170q-20 4 -51 4q-35 0 -67 -7t-68.5 -27.5t-59 -67.5t-22.5 -115v-31h491v35q0 98 28.5 171t69.5 113t98.5 63.5t101.5 30.5t91 7l76 -6v-170q-20 4 -51 4q-35 0 -67 -7t-68.5 -27.5 t-59 -67.5t-22.5 -115v-31h635v-1036h-199v877h-436v-877h-197v877h-491v-877h-197v877h-129zM1530 1243v203h201v-203h-201z" />
<glyph unicode="&#xfb04;" horiz-adv-x="1918" d="M82 877v159h129v35q0 98 28.5 171t69.5 113t98.5 63.5t101.5 30.5t91 7l76 -6v-170q-20 4 -51 4q-35 0 -67 -7t-68.5 -27.5t-59 -67.5t-22.5 -115v-31h491v35q0 98 28.5 171t69.5 113t98.5 63.5t101.5 30.5t91 7l76 -6v-170q-20 4 -51 4q-35 0 -67 -7t-68.5 -27.5 t-59 -67.5t-22.5 -115v-31h245v-159h-245v-877h-197v877h-491v-877h-197v877h-129zM1520 283v1163h198v-1129q0 -86 29 -116.5t82 -30.5l35 2v-176q-31 -4 -66 -4q-278 0 -278 291z" />
</font>
</defs>
</svg>
